<?xml version="1.0" standalone="no"?>
<!DOCTYPE svg PUBLIC "-//W3C//DTD SVG 1.1//EN" "http://www.w3.org/Graphics/SVG/1.1/DTD/svg11.dtd" >
<svg xmlns="http://www.w3.org/2000/svg" xmlns:xlink="http://www.w3.org/1999/xlink" version="1.1">
<metadata>
Created by FontForge 20180930 at Mon Oct  8 19:08:14 2018
 By root
Copyright (c) 2017 by Dikas Studio. All rights reserved.
</metadata>
<defs>
<font id="StayWildyPersonalUseOnly" horiz-adv-x="340" >
  <font-face 
    font-family="Stay Wildy Personal Use Only"
    font-weight="400"
    font-stretch="normal"
    units-per-em="1000"
    panose-1="0 0 0 0 0 0 0 0 0 0"
    ascent="750"
    descent="-250"
    x-height="353"
    cap-height="563.5"
    bbox="-63.875 -455 675 753.789"
    underline-thickness="50"
    underline-position="-100"
    unicode-range="U+0020-007A"
  />
    <missing-glyph />
    <glyph glyph-name="space" unicode=" " horiz-adv-x="300" 
 />
    <glyph glyph-name="h" unicode="h" horiz-adv-x="312" 
d="M71 625q12 7 29 -5t21 -41t5 -68.5t-6 -110.5q-4 -35 -9.5 -78t-10.5 -81.5t-8.5 -66t-2.5 -31.5l19 53q11 30 21 60t21 60q10 23 28 46q18 26 48 19q33 -8 39 -38q3 -16 4 -32t0 -33q-3 -49 -7.5 -97.5t-6.5 -97.5q-2 -30 0.5 -59.5t4.5 -59.5q0 -4 1 -9.5t2.5 -10.5
t3.5 -8t4 -3q1 0 8.5 27t18 67t22 87t22 88.5t17.5 70.5t9 33q5 12 9.5 -1t2.5 -36q-1 -8 -5 -28.5t-10.5 -48.5t-14.5 -60.5t-15.5 -64t-14.5 -58.5t-12 -45q-5 -17 -8 -35t-9 -35q-5 -15 -17.5 -22t-26.5 -9q-17 -3 -35.5 3t-27.5 19q-18 25 -20.5 52.5t-4.5 57.5
q-2 36 4 84t14 93q9 51 21 105q6 26 10 46q3 17 4 30t-4 11q-4 -1 -10.5 -16t-15 -37.5t-17 -48.5t-16 -49.5t-13 -41.5t-6.5 -23q-5 -23 -11.5 -44.5t-12.5 -44.5q-3 -11 -5.5 -22.5t-16.5 -15.5q-35 -9 -58 17q-14 16 -20.5 35.5t-4.5 39.5q2 30 5.5 60t8.5 60
q4 19 9.5 50.5t11 68t12 74.5t11 69.5t8 53.5t4.5 27q2 11 4 22.5t-4 26.5z" />
    <glyph glyph-name="i" unicode="i" horiz-adv-x="137" 
d="M101 18q3 0 9.5 23t14.5 51l18 74q7 31 14 57q5 22 10.5 42.5t7.5 26.5q3 12 8 10q3 -1 5 -5l-8 -34q-1 -2 -4 -19t-7.5 -42t-10 -54.5t-10.5 -56t-9 -47t-6 -27.5q-5 -17 -13 -29.5t-28 -14.5q-21 -3 -38.5 3.5t-30.5 24.5q-6 9 -9.5 25t-6 33.5t-3.5 34.5t-1 27
q0 47 4.5 82.5t9.5 61t9.5 40.5t4.5 21q0 12 3 17.5t13 8.5q28 8 35 -14q4 -14 5.5 -36.5t1.5 -46.5t-1 -45.5t-2 -31.5v-25.5t0.5 -34t1 -33.5t0.5 -25q0 -5 1 -12.5t2.5 -14t4 -11t5.5 -4.5zM58 460q11 0 23 -8.5t12 -17.5q0 -4 -4 -9.5t-9.5 -10t-12 -8t-11.5 -3.5
q-11 0 -20 10t-9 21q1 11 9 18.5t22 7.5z" />
    <glyph glyph-name="j" unicode="j" horiz-adv-x="211" 
d="M118 358q4 -10 5.5 -20.5t1.5 -21.5q1 -42 1.5 -83.5t0.5 -83.5q0 -4 3 -14q9 11 13 17q32 41 63 81t62 81q2 2 3.5 4.5t3.5 3.5q10 8 18 4.5t-2 -18.5q-11 -15 -22 -29l-22 -28q-8 -9 -25 -32t-35 -48.5t-34 -49t-22 -34.5q-2 -2 -1.5 -5.5t0.5 -7.5q2 -63 4.5 -125
t-8.5 -125q-3 -17 -8.5 -48t-17 -62.5t-32 -57t-53.5 -32.5q-8 -2 -24.5 1t-27.5 14q-14 16 -16.5 38t0.5 44.5t9.5 44t11.5 36.5q13 36 24 65q9 25 16.5 45.5t9.5 22.5q11 24 17 41t9 31.5t3 28v31.5q-1 26 0 52.5t-1 52.5q3 98 10 151.5t-1 67.5q14 1 26 -2q11 -2 21 -9.5
t16 -21.5zM40 -75q0 6 -2 4q-1 -1 -2 -4q-5 -17 -11 -33t-11 -33q-5 -15 -9 -30.5t-7 -31.5q-5 -26 -7.5 -52t2.5 -52q1 -3 4 -6.5t6 -3.5q4 -1 8.5 1t6.5 5q9 17 10 32q4 28 6 57q2 37 3 73.5t3 73.5zM89 470q11 0 23 -8.5t12 -17.5q0 -4 -4 -9.5t-9.5 -10t-12 -8
t-11.5 -3.5q-11 0 -20 10t-9 21q1 11 9 18.5t22 7.5z" />
    <glyph glyph-name="k" unicode="k" horiz-adv-x="270" 
d="M322 263q0 -7 -3 -11q-5 -13 -10.5 -25.5t-11.5 -24.5l-39 -75q-3 -7 -5.5 -13.5t-5.5 -13.5q-5 -13 -10.5 -25t-13.5 -23q-7 -11 -25.5 -12.5t-34.5 6.5q-12 5 -22.5 18t-19 28t-14.5 29t-9 22l-1 1q1 -36 3 -79t6 -78q1 -6 -5 -10.5t-15.5 -5t-20.5 3t-20 13.5
q-29 33 -38 100.5t-5 174.5q6 72 16.5 128t24 98.5t28.5 74t29 55.5q15 23 29.5 34t27 14t22 -1t14.5 -10q5 -7 6.5 -15.5t-0.5 -16.5q-1 -6 -6.5 -20t-13.5 -31.5t-19 -36t-22 -31.5q-2 -3 -4.5 -6.5t-3.5 -7.5q-3 -6 -7.5 -29t-10 -53.5t-9.5 -65.5t-5 -65q2 0 2 3
q3 5 7 17.5t8 26t8 25t7 16.5q6 13 12.5 24t13.5 23t19.5 18t26.5 5t27 -10t21 -26q7 -16 8 -36t-5 -41t-18.5 -41t-33.5 -35q-16 -13 -32 -25t-33 -24q-13 -7 -8 -17q11 -23 21.5 -47t23.5 -46q11 -17 23.5 -16.5t20.5 18.5q9 17 17 32.5t16 32.5l52 91l8 10l8 10zM133 539
q14 21 21.5 33t12.5 19t7 10q9 21 3 27t-11 -7zM173 398q-13 -16 -23.5 -43t-17.5 -52t-9 -42t1 -14l10 12.5t12.5 15.5t12.5 15.5l10 12.5q13 19 23.5 39t9.5 45q0 9 -4 13t-9.5 4t-10 -2t-5.5 -4z" />
    <glyph glyph-name="l" unicode="l" horiz-adv-x="187" 
d="M272 332q-2 -6 -10.5 -29t-20.5 -54.5t-26 -67t-26 -67t-21.5 -54.5t-11.5 -28q-8 -17 -17.5 -31.5t-20.5 -24.5t-23.5 -12.5t-25.5 4.5q-14 7 -27 22t-23 41t-15.5 64t-3.5 91q6 72 18 128t27 98.5t31 74t30 55.5q15 23 29.5 33t26 12t19.5 -1.5t10 -6.5q5 -7 6.5 -15.5
t-0.5 -16.5q-1 -6 -8.5 -28.5t-19 -50t-24.5 -54t-24 -39.5q-2 -3 -4.5 -6.5t-3.5 -7.5q-11 -26 -19 -108t6 -221q3 -23 20 -6q9 7 15 18l126 286q2 3 3 6.5t3 6.5q2 2 4 2q4 0 1 -13zM116 409q28 43 42 78q8 19 14 37q9 21 3 27t-11 -7z" />
    <glyph glyph-name="m" unicode="m" horiz-adv-x="459" 
d="M391 -15l111 262q2 0 3 -0.5t2 -0.5q0 -2 0.5 -5t-1.5 -5q-6 -15 -13.5 -35t-15.5 -41t-15.5 -41t-12.5 -35q-5 -13 -11.5 -31t-12.5 -35q-7 -20 -14 -41q-5 -15 -11 -26q-5 -10 -12.5 -17.5t-18.5 -7.5q-11 -2 -24.5 2t-25.5 17.5t-20.5 38.5t-9.5 66q0 8 2 30t4.5 47
t5 48t4.5 34q4 22 10 43.5t11 43.5l12 45q-10 -12 -21.5 -42.5t-23 -63.5t-20.5 -60.5t-15 -34.5q-15 -16 -33 -15q-25 2 -39.5 15t-22.5 38q-10 34 -5.5 66.5t13.5 64.5q2 7 4.5 16.5t5.5 18.5t5 15.5t3 9.5q2 5 -2.5 6t-9.5 -11l-26 -56t-25 -57q-13 -33 -21.5 -68
t-16.5 -63.5t-18 -47t-26 -18.5q-17 0 -27 6.5t-16.5 17t-9.5 22.5t-5 23q-7 39 -1.5 78.5t14.5 74.5t16 63.5t3 45.5q-2 5 0.5 5.5t7 -0.5t9 -3t6.5 -3q19 -7 34.5 -28.5t11.5 -52.5q-2 -11 -6 -38t-7.5 -52.5t-4.5 -40.5t4 -2q11 27 20.5 54.5t21.5 53.5q12 27 26 53.5
t28 52.5q6 11 15.5 14t20.5 1q26 -5 41 -27t16 -57q0 -14 -2.5 -32.5t-6 -35t-6.5 -29t-3 -14.5q-2 -10 -1 -12.5t3 -3.5l6 12t5 12q15 35 29.5 69.5t30.5 69.5q11 21 30 27t38 -2q11 -5 16 -13t6 -18q2 -14 0.5 -28.5t-2.5 -28.5q0 -3 -1.5 -6t-1.5 -6q-3 -23 -5.5 -44.5
t-4.5 -43.5q-3 -24 -5.5 -62.5t-3.5 -73.5t0.5 -56.5t7.5 -10.5z" />
    <glyph glyph-name="n" unicode="n" 
d="M101 142q3 0 8 13t11.5 31t13 38t11.5 35q10 29 22 57t32 52q12 13 26 22t32 4q17 -5 24 -19t7 -29q0 -28 -2 -55.5t-6 -54.5q-3 -22 -5.5 -54.5t-3.5 -63.5t-1 -54v-26v-11t1 -19t2.5 -17.5t4.5 -7.5q2 0 10 17.5t18.5 44t23 58.5t23.5 62t20.5 53.5t13.5 32.5q2 5 4 8
t4 8q4 -2 5 -2q-1 -5 -1 -9t-2 -9q-8 -26 -16.5 -52.5t-16.5 -53.5q-5 -22 -12.5 -44t-13.5 -44q-4 -13 -10 -33t-15 -38.5t-22 -32t-29 -13.5q-26 0 -42.5 11.5t-24.5 25.5q-11 16 -14 37q-9 58 -4.5 117.5t13.5 108t18.5 80.5t10.5 36q-5 3 -14 -11.5t-19 -38t-20.5 -52
t-19.5 -54.5t-15 -45.5t-7 -24.5q-5 -14 -14.5 -29.5t-21.5 -18.5q-17 -4 -31.5 -1t-26.5 17q-17 27 -21.5 64t-2 73t7.5 65.5t7 40.5q1 7 3 14.5t2 15.5q21 8 41 -4.5t22 -35.5q2 -33 1.5 -66t1.5 -66q0 -6 0.5 -15.5t1.5 -17.5t2.5 -14t4.5 -6z" />
    <glyph glyph-name="o" unicode="o" horiz-adv-x="298" 
d="M293 295q-23 -4 -30.5 -16.5t-10.5 -32.5q-2 -16 -3.5 -27.5t-3 -23.5t-4.5 -26t-9 -34t-14.5 -41t-20.5 -38t-28 -27.5t-37 -10.5q-30 -2 -55.5 8.5t-44 28.5t-28.5 42.5t-9 51.5q0 56 15.5 97t37.5 67t44.5 37t37.5 7q-1 1 -3 6t-3 11.5t-1 14.5t4 16q16 27 48 19
q40 -9 57 -48q2 -5 3.5 -9t3.5 -7q5 -15 10 -23t11 -11t14 -1.5t19 4.5t23.5 8t23.5 9t18.5 5t9.5 -4q4 -10 -4.5 -15t-19.5 -14q-11 -10 -25 -15.5t-26 -7.5zM136 66q7 0 15.5 9.5t15.5 22.5t12.5 25.5t7.5 17.5q7 19 13 42t10 44.5t4 38.5t-6 25q-6 7 -16.5 6.5
t-21.5 -12.5q-11 -11 -21 -31t-18 -44t-13 -48.5t-5.5 -45t5 -34.5t18.5 -16zM218 344q-2 27 -20.5 36.5t-41.5 -4.5q4 -10 11.5 -15t16 -7.5t17.5 -4t17 -5.5z" />
    <glyph glyph-name="p" unicode="p" horiz-adv-x="335" 
d="M48 371q47 15 59 -21q6 -16 9.5 -32t7.5 -30q4 11 8.5 24t9.5 27q12 32 43 47q35 18 58.5 6.5t40.5 -46.5q7 -13 11 -26.5t9 -26.5q4 -31 2 -62q-2 -26 -10.5 -56t-28.5 -54q-19 -24 -42 -41q-19 -14 -38.5 -13t-38.5 15q-4 3 -9 4.5t-10 3.5q-2 -5 -4 -9t-2 -9
q-5 -51 -6 -100t8 -100q6 -32 -6 -45.5t-43 -12.5q-58 0 -69 56q-4 25 -5 49.5t0 49.5q1 19 2.5 42t3.5 45t3.5 40t1.5 28q6 57 13.5 100t13.5 73.5t8.5 48.5t-0.5 25zM130 118q6 2 20.5 13t28.5 29.5t25 43t11 53.5q1 24 2 47.5t-9 46.5q-5 12 -12 13.5t-15 -8.5t-15 -21
t-12 -23q-17 -48 -21.5 -96t-2.5 -98z" />
    <glyph glyph-name="q" unicode="q" horiz-adv-x="285" 
d="M165 378l9 -4.5t9 -5.5q4 -4 9 -7q9 3 17 3q6 -1 11.5 -5t6.5 -15q5 -20 5 -39q-1 -20 -2 -41t-3 -42q17 -2 34.5 9t33 27.5t28 34t20.5 26.5q2 2 4 5l4 6q3 3 5 -2.5t-7 -18.5q-8 -10 -17.5 -25.5t-22 -31.5t-28 -30t-35.5 -21q-15 -7 -14 -21q1 -4 1 -9t2 -10
q3 -15 4.5 -42.5t2 -61t-0.5 -70t-1.5 -68t-2 -55t-1.5 -31.5q-1 -14 -6 -30t-17 -23q-14 -8 -25.5 -7.5t-20 3.5t-13 7t-4.5 5q-11 13 -17 35.5t-9 48.5t-4 53.5t0 49.5t2 37t1 16l5 39q0 2 -4 4.5t-8 2.5q-6 0 -12 -0.5t-13 -1.5q-32 -2 -55.5 15.5t-33.5 47.5
q-5 23 -4.5 46t11.5 58q21 62 45.5 93t47.5 42.5t40 9.5t23 -6zM111 117q4 0 8.5 15t9 37.5t8.5 49t7.5 50.5t5.5 41t3 20q2 8 -3 10.5t-10 -2.5q-5 -4 -12 -10t-14.5 -15.5t-13.5 -24t-9 -35.5q-1 -3 -3 -24.5t-2 -46.5t5.5 -45t19.5 -20zM222 169q-2 7 -5 7t-2 -14v-41
q-6 -66 -9 -119q-1 -23 -1.5 -44.5t0 -39t2 -29t5.5 -12.5q5 29 9.5 67t6.5 77.5t1 78t-7 69.5z" />
    <glyph glyph-name="r" unicode="r" horiz-adv-x="286" 
d="M363 288q5 -13 2.5 -24.5t-7.5 -22.5q-3 -9 -8.5 -31t-12.5 -50.5t-15.5 -61t-17.5 -61t-18 -50.5t-17 -30q-5 -5 -8.5 -10.5t-9.5 -10t-15.5 -8t-24.5 -3.5q-23 0 -41 15t-26 40q-3 10 -6 21t-4 22q-1 8 2.5 15.5t3.5 15.5q4 48 14 95t25 93q4 13 6 25.5t6 24.5
q-1 1 -4 -1l-6 -6t-9 -12q-17 -30 -37 -35t-41 -5q-10 1 -19 8t-15.5 17.5t-10 22t-3.5 22.5q2 14 6 29t7 30q2 9 3.5 18.5t3.5 21.5q10 8 22.5 8.5t24.5 -7.5t18 -22t3 -28q-2 -13 -5 -25t-5 -24q-2 -6 -5 -15.5t4 -9.5q6 0 15 8.5t15 13.5q10 8 18.5 14t19.5 12
q14 8 29 8.5t26 -10.5q8 -9 12.5 -23.5t3.5 -27.5q-4 -42 -11 -83t-12 -83q-2 -26 -3.5 -53t-3.5 -54v-5q2 -20 11.5 -25.5t17.5 2.5q4 4 10.5 22t15 44.5t17.5 57.5t17 61.5t14.5 56t10.5 40.5q2 9 5 17.5t5 16.5q2 0 3.5 -0.5t3.5 -0.5z" />
    <glyph glyph-name="s" unicode="s" horiz-adv-x="211" 
d="M135 294l17.5 17.5t14.5 19.5q10 14 3 22.5t-18 10.5q-10 2 -25 -5.5t-26.5 -22.5t-16 -37.5t5.5 -50.5q7 -14 12 -25.5t10.5 -22t11 -22t13.5 -24.5q1 -1 14.5 17.5t33 44t41.5 51t40 38.5q4 3 7.5 4t7.5 3l3 -3l-4.5 -9t-5.5 -7q-10 -8 -27 -30.5t-34 -46.5
q-19 -28 -41 -61q-5 -7 -8 -15q-2 -8 -2.5 -17.5t4.5 -23.5q6 -14 11.5 -29t9.5 -31q13 -48 4 -86t-38 -73q-1 -2 -11 -11.5t-25 -18t-34 -11t-39 9.5q-15 8 -28.5 26t-13.5 53q0 17 7 35.5t17.5 36.5t22 34t21.5 30q17 22 20 36.5t-9 43.5q-6 12 -12 24.5t-11 25.5
q-11 24 -19.5 46t-9.5 49q-3 32 3 55.5t17 39.5t24.5 25t26.5 12q18 4 31 1.5t21 -7.5q10 -5 17 -14q8 -8 14 -17q5 -8 8.5 -18t2.5 -21q0 -21 -15 -44t-32 -37q-8 -6 -14 -4.5t-8 7t0 13.5t10 14zM101 60l-22 -38q-3 -6 -9 -16t-9.5 -21.5t-3.5 -22.5t9 -19q2 -2 8.5 2.5
t8.5 9.5q10 16 14 31t4.5 28.5t-0.5 25t0 20.5z" />
    <glyph glyph-name="t" unicode="t" horiz-adv-x="170" 
d="M-45 463q20 -1 43.5 -0.5t50.5 10.5q3 0 5.5 4t4.5 8q8 20 16 37.5t16 36.5q6 14 18 37t27 47t30.5 44.5t27.5 29.5q9 7 15 8.5t11 -0.5q4 -2 8 -7q2 -5 4 -9q4 -10 4 -14q-1 -20 -8 -41t-16 -40t-18 -34t-13 -23t-11.5 -19.5t-14 -22t-8.5 -18t4 -7.5q6 1 25.5 3t39.5 4
q24 3 52 6q2 0 9 0.5t7 -2.5q0 -4 -5.5 -7t-7.5 -4q-3 -1 -7 -1.5t-8 -1.5t-9 -2q-22 -4 -42 -8q-17 -4 -35.5 -8t-32.5 -8q-1 0 -4.5 -2.5t-8 -9.5t-9 -19.5t-8.5 -32.5q-1 -5 -5 -36t-9 -83t-9.5 -121.5t-6.5 -150.5q-1 0 0.5 -6t5 -10t10 -3t15.5 15q14 23 35.5 57
t39.5 66q14 23 25.5 46.5t23.5 46.5q2 2 5 8t8 5q5 0 3.5 -8t-2.5 -10l-8 -24t-9 -23q-6 -15 -12 -29.5t-13 -28.5l-60 -124q-1 -2 -5 -10.5t-11 -18.5t-16.5 -18.5t-21.5 -9.5q-31 -3 -50.5 9.5t-34.5 38.5q-15 35 -18 82.5t1 98t12 100t17 89t16 64.5t7 27q2 5 -6 5.5
t-13 0.5q-24 0 -34 -0.5t-13.5 -0.5t-4.5 0.5t-8 0.5q-10 0 -16.5 3.5t-8 7t3 7t15.5 3.5zM218 674q-10 -4 -23.5 -23t-25 -42t-19 -45.5t-5.5 -33.5z" />
    <glyph glyph-name="u" unicode="u" horiz-adv-x="286" 
d="M238 207q-2 -26 -3 -53t-2 -53q0 -1 1 -7t2.5 -13t4.5 -12.5t8 -5.5q3 0 9 14.5t13.5 37.5t16 51t16.5 55.5t14.5 51t11.5 36.5h5v-25q0 -3 -4.5 -25t-12.5 -53t-18 -66t-21 -65t-23 -49.5t-22 -19.5q-35 -9 -60 22q-8 14 -12.5 29t-6.5 29q-3 16 -4 32q-1 0 -3 -4.5
t-4 -9.5t-4 -9l-2 -4q-5 -12 -10 -23.5t-10 -22.5q-3 -5 -7 -10t-9 -7q-45 -16 -76 27q-16 29 -22 68q-5 29 -3 59v17t1 17q-2 14 1.5 23.5t7.5 21.5q3 12 3 20.5t2 16.5q6 25 11 42t7 23q3 9 9.5 13t14 5t15 -0.5t11.5 -4.5q8 -5 16.5 -17t8.5 -32q0 -7 -3.5 -25
t-8.5 -42.5t-9 -52t-5.5 -54t1.5 -48t13 -33.5q5 0 7.5 6.5t3.5 11.5q11 32 21 63t18 63q7 25 11 51.5t9 52.5q0 2 2 10q4 20 15 27.5t31 6.5q30 -2 30 -31q-1 -19 -2.5 -37.5t-4.5 -37.5q-2 -7 -0.5 -24.5t0.5 -26.5z" />
    <glyph glyph-name="v" unicode="v" horiz-adv-x="266" 
d="M321 304q-3 -9 -13 -12.5t-22 -3t-24 3.5t-18 8q-11 -31 -24 -70t-24 -71q-8 -23 -17 -46t-17 -46q-2 -5 -4.5 -8.5t-2.5 -8.5q0 -22 -13 -29t-30 -12q-32 -8 -48 18q-9 14 -16.5 29t-9.5 30q-5 29 -6.5 57t-4.5 57q-2 27 -6.5 62.5t-8.5 62.5q0 10 -7 15q-8 6 -7 12t7 8
q10 4 20.5 6.5t18.5 -1.5q18 -8 31.5 -20.5t20.5 -33.5q6 -18 9.5 -39t6 -42.5t5 -42.5t6.5 -39l12 -70q4 8 8 14.5t7 14.5q19 45 40 98t39 99q3 10 -2 21q-4 7 -7 22t-4.5 31.5t-0.5 31t7 20.5q2 3 4 7t5 6q5 3 10.5 7t10.5 3t9 -7t6 -11q5 -22 3.5 -47t-9.5 -48
q-3 -9 1 -15.5t12.5 -10.5t19 -6.5t20.5 -2.5q2 0 3.5 -0.5t3.5 -0.5zM244 347l1 1q0 -1 2 7q3 13 6.5 26t5.5 27q1 3 1.5 10.5t-5.5 7.5t-9.5 -5.5t-5.5 -9.5q-4 -8 -4 -18t2 -21q2 -12 6 -25z" />
    <glyph glyph-name="x" unicode="x" horiz-adv-x="446" 
d="M104 -24q-4 -4 -8.5 -4.5t-9.5 -0.5t-10 2q-7 0 -11 3q-14 9 -18 17t10 16q12 10 26 24t26 28q14 16 29 32q7 7 12 13q5 5 9 10.5t6 7.5q4 4 4 10t-2.5 12t-5.5 12l-5 10q-11 20 -27 45.5t-32.5 49t-29.5 40.5t-17 20q-7 5 0.5 14t22.5 14t33 2t32 -22q4 -7 13 -19.5
t19.5 -26t20 -26t14.5 -19.5l30 -46l21 23q11 14 22.5 29t23.5 29q3 3 10.5 12t16.5 19t18 19t14 13q8 7 20 1t14 -14q2 -5 -4 -16t-15 -24t-18.5 -26t-14.5 -22q-4 -7 -13 -18.5t-19 -24t-20 -23.5t-15 -17q-6 -8 -5.5 -15.5t3.5 -14.5q4 -8 10 -16q15 -27 28 -48
q11 -18 21.5 -32.5t15.5 -14.5q12 0 28.5 16.5t34.5 42t36 55t33.5 55.5t27 44.5t17.5 20.5q3 3 9 3q-5 -8 -10.5 -16.5t-11.5 -16.5q-8 -9 -19 -31t-24.5 -49.5t-28.5 -56.5t-31 -53.5t-32 -40t-30 -15.5q-28 0 -51 11t-41 26t-30.5 32t-18.5 29q-5 9 -10.5 8.5
t-14.5 -10.5l-30 -35q-10 -14 -20 -25q-8 -10 -16 -19t-12 -12z" />
    <glyph glyph-name="y" unicode="y" horiz-adv-x="386" 
d="M38 366q6 1 15 -1t18.5 -6.5l19 -9t15.5 -7.5q14 -7 18.5 -18.5t5.5 -26.5q1 -25 0 -49.5t-2.5 -49.5t-1.5 -49.5t4 -49.5q2 -15 7.5 -29.5t16.5 -28.5q7 -8 14 -4.5t12.5 12.5t9 19t4.5 16q12 50 22.5 99t21.5 99q2 11 6 20.5t10 17.5q5 6 13.5 11t15.5 4
q13 0 21.5 -14.5t13.5 -34t7 -41t2 -34.5q-1 -28 2 -63.5t6 -64.5q14 20 27 46.5t26 54.5t26 55.5t27 50.5q1 1 5 1q2 -2 2 -4q-2 -5 -2.5 -11t-3.5 -11q-2 -3 -7 -17.5t-13 -35t-18 -44.5t-20 -47t-20 -42.5t-18 -30.5q-7 -9 -6 -22t2 -23l2 -72q0 -2 3.5 -33.5t6 -75
t2 -90.5t-9.5 -81q-5 -17 -12.5 -35.5t-20 -34t-30.5 -26t-43 -10.5t-41 11t-25.5 25t-14 27t-5.5 16q-15 51 -10.5 99.5t18.5 88.5t31.5 70.5t26.5 45.5q11 17 17.5 33t6.5 36q-1 38 0.5 75.5t3.5 75.5v11q-8 -29 -16 -57t-16 -55q-5 -18 -19 -38q-4 -6 -18 -12t-32.5 -7
t-39 4.5t-38 22.5t-28.5 48t-11 79q2 38 3.5 75.5t6.5 75.5q5 21 4 33.5t-3 19.5t-4 11t1 7zM245 -103q0 10 -2.5 5.5t-4.5 -4.5q-5 -6 -9 -12t-7 -13q-5 -13 -10.5 -26t-10.5 -26q-4 -12 -8.5 -33t-7.5 -44.5t-2 -47t9 -40.5q8 -18 16 -19.5t15 4.5t11.5 15t4.5 14
q2 10 3.5 19t1.5 19q0 24 0.5 54.5t0.5 59v49.5v26z" />
    <glyph glyph-name="z" unicode="z" horiz-adv-x="331" 
d="M144 265q17 14 34.5 29t34.5 29q1 1 3 4q-3 0 -4 -1q-11 -2 -22.5 -5.5t-23.5 -5.5q-5 -1 -14 -4t-19 -6t-19 -6t-13 -3q-16 -3 -34 2q-6 1 -14 5t-14.5 10.5t-10.5 17t-2 24.5q3 17 14 25.5t12 7.5q10 -7 30 -8.5t44 -0.5t50 4t47.5 6.5t35.5 6t15 3.5q5 3 13.5 -0.5
t11.5 -17.5q2 -9 -1 -18.5t-12 -14.5q-8 -5 -15.5 -11.5t-15.5 -11.5q-5 -3 -13.5 -11t-18.5 -17t-18.5 -17t-11.5 -12q-4 -5 -8 -8.5t-8 -7.5q-8 -8 -3.5 -8h6.5q19 5 34 3t24 -4q10 -3 18.5 -8t17.5 -10q4 -2 8 2q23 18 49 30.5t54 23.5q6 2 12.5 3t13.5 3q1 0 1.5 -0.5
t1.5 -0.5q-1 -1 -1 -2t-1 -1l-3 -13q0 -2 -1 -3t-1 -2t-1 -1q-6 -2 -24 -10.5t-37.5 -19t-34.5 -21.5t-15 -19q11 -19 15.5 -45t-0.5 -49q-1 -13 -15.5 -46t-39.5 -65.5t-60 -55t-78 -14.5q-9 2 -23 10t-25 21.5t-15.5 33t5.5 44.5q6 16 21.5 34.5t35.5 37t42 35t41 30.5
t33 24t18 13q1 1 -0.5 5t-3.5 5q-14 8 -28.5 8t-28.5 -5q-16 -5 -31.5 -11t-29.5 -14q-7 -3 -12.5 -4t-8.5 4q-4 7 -7 15t-1 15q3 9 10 16.5t14 13.5t13 9.5t8 5.5zM265 172v6h-2h-2q-5 -4 -22.5 -21t-37.5 -37t-38 -38.5t-24 -25.5q-4 -5 -9.5 -12t-10 -14t-7.5 -12.5
t-1 -7.5h1h2q46 7 75 30.5t46 50.5t23.5 50.5t6.5 30.5z" />
    <glyph glyph-name="d" unicode="d" 
d="M413 352q-1 -6 -1.5 -12t-2.5 -12l-60 -316q-10 -35 -25 -52t-40 -17q-12 0 -20.5 4t-14 9t-9 10.5t-5.5 7.5q-2 1 -7.5 15t-11.5 30t-11 29t-6 14q-9 11 -11.5 6t-7.5 -13l-16 -28l-16 -28q-4 -7 -11 -12q-15 -11 -40 -10t-49.5 15t-42 41.5t-17.5 70.5q5 84 29.5 139.5
t55.5 86.5t61.5 40.5t46.5 1.5q19 -1 23 18q7 32 14 64.5t17 64.5q22 75 62 144q25 41 46.5 61t38 26t27.5 2.5t15 -8.5q7 -10 6 -28.5t-6 -39.5t-12 -42.5t-11 -36.5q-16 -53 -41 -100t-58 -91q-2 -4 -4 -7.5t-3 -7.5q-7 -33 -14 -66.5t-12 -67.5q-2 -17 -2 -34t-1 -34
v-40.5t2 -40.5q0 -5 2 -20.5t4 -33.5t4 -34t4 -20q4 -9 9.5 -11t13.5 9q19 38 33 85.5t25 95t20 89.5t18 70l6 15q2 0 3 -0.5t3 -0.5zM110 12q5 9 9.5 17.5t8.5 17.5q8 20 15 38.5t14 38.5l10 30t8 31q5 23 9.5 45t9.5 45q1 5 2.5 13.5t1 16.5t-4 14.5t-12.5 8.5
q-5 0 -10.5 -2.5t-7.5 -6.5q-7 -10 -14 -20.5t-10 -21.5q-11 -34 -19.5 -68t-16.5 -68q-6 -26 -6 -51v-23.5t1 -25.5t3.5 -20.5t8.5 -8.5zM396 721q-6 -1 -12 -8q-5 -6 -13 -19.5t-17 -37.5q-8 -24 -13.5 -48.5t-11.5 -49.5l-19 -80q11 9 22.5 28.5t22.5 44t20.5 51.5
t15.5 51t7.5 42.5t-2.5 25.5z" />
    <glyph glyph-name="w" unicode="w" horiz-adv-x="459" 
d="M519 306q2 0 3.5 -0.5t3.5 -0.5q-3 -9 -13 -12.5t-22 -3t-24 3.5t-18 8q-11 -31 -24 -70t-24 -71q-8 -23 -17 -46t-17 -46q-2 -5 -4.5 -8.5t-2.5 -8.5q0 -22 -13 -29t-30 -12q-32 -8 -48 18q-9 14 -16.5 29t-9.5 30q-5 27 -6.5 54t-3.5 55q-9 -37 -17 -57q-8 -23 -17 -46
t-17 -46q-1 -2 -3 -10t-7 -17t-14.5 -18t-25.5 -13q-20 0 -34 9t-22.5 22t-12.5 25.5t-5 20.5q-5 29 -6.5 57t-4.5 57q-1 13 -5.5 44t-9.5 62.5t-9.5 56t-5.5 25.5q-8 6 -7 12t7 8q10 4 20.5 6.5t18.5 -1.5q18 -8 31.5 -20.5t20.5 -33.5q6 -18 11 -46.5t9 -59t7.5 -59
t7.5 -46.5l12 -70q4 8 8 14.5t7 14.5q12 29 27 76t29 95q-2 18 -4.5 35.5t-4.5 32.5q0 10 -7 15q-8 6 -7 12t7 8q10 4 20.5 6.5t18.5 -1.5q2 -1 5 -2t5 -2v1q0 -1 2 -3q14 -8 24.5 -19.5t15.5 -28.5q6 -18 9.5 -39t6 -42.5t5 -42.5t6.5 -39l12 -70q4 8 8 14.5t7 14.5
q19 45 40 98t39 99q3 10 -2 21q-4 7 -7 22t-4.5 31.5t-0.5 31t7 20.5q2 3 4 7t5 6q5 3 10.5 7t10.5 3t9 -7t6 -11q5 -22 3.5 -47t-9.5 -48q-3 -9 1 -15.5t12.5 -10.5t19 -6.5t20.5 -2.5zM452 356q3 13 6.5 26t5.5 27q1 3 1.5 10.5t-5.5 7.5t-9.5 -5.5t-5.5 -9.5
q-4 -8 -4 -18t2 -21q2 -12 6 -25l1 1q0 -1 2 7z" />
    <glyph glyph-name="B" unicode="B" horiz-adv-x="410" 
d="M106 266q10 58 17 97.5t12.5 66.5t11 46.5t13.5 38.5q4 13 10.5 25t14.5 23q13 19 31 27.5t36 8t35 -11t28 -30.5q28 -43 36 -91.5t-5 -96.5q-4 -17 -11.5 -37t-14.5 -38t-12 -31.5t-5 -17.5q1 -12 5 -18q10 -15 20.5 -28.5t18.5 -28.5q12 -20 17 -46.5t2.5 -53.5
t-13 -53t-29.5 -45q-11 -11 -20 -18t-19.5 -12t-24.5 -7t-34 -2q-26 0 -42 11t-24.5 27t-12 32.5t-4.5 27.5q-4 43 7.5 64.5t25.5 27t25 -1.5t6 -20q-5 -11 -4.5 -26t4.5 -28q5 -15 20 -16.5t26 10.5q16 17 24.5 39t8.5 45t-8 44.5t-25 37.5q-6 6 -19 15.5t-26.5 19.5
t-26 18t-18.5 12t-5.5 12.5t5.5 15.5t13 10t18 -4t17.5 -7t13 4t9 10.5t3.5 12.5q10 24 17.5 54t11 60t2.5 56t-7 43q-14 29 -28 23q-5 -5 -9.5 -9t-7.5 -9q-29 -50 -44 -103.5t-20 -110.5q-3 -47 -11.5 -92.5t-14.5 -91.5q-3 -29 -3.5 -59.5t-4.5 -59.5q-1 -9 -3 -24.5
t-6.5 -31t-12.5 -27t-21 -11.5q-69 -1 -75 58q-2 13 -2 32t0.5 39t1.5 39.5t2 32.5q3 43 6 91.5t6 98.5t6 98.5t6 92.5q1 7 0 14.5t1 12.5q3 7 9 15t11 8q17 -1 34 -21t21 -43q1 -8 1.5 -27t1 -43.5t0.5 -51.5v-50.5v-41t1 -21.5z" />
    <glyph glyph-name="C" unicode="C" horiz-adv-x="295" 
d="M217 -17q7 -2 18 4t14 14q13 27 23.5 55.5t21.5 56.5q2 5 3 9t9 9q8 4 8.5 -5.5t-0.5 -13.5q-9 -33 -17.5 -66.5t-22.5 -65.5q-7 -16 -19 -26t-26.5 -15t-30.5 -5t-31 3q-32 4 -57.5 25t-40.5 41q-17 17 -30.5 46t-22 60.5t-13 61t-3.5 46.5q0 85 21 148t53 105t69.5 65
t71 29.5t57.5 -2.5t29 -30q6 -18 7.5 -35.5t-4 -34t-18 -30.5t-33.5 -23q-11 -5 -18.5 -4.5t-4.5 11.5t10 15.5t14 9.5q16 12 19 32.5t-11 31.5q-1 2 -11 0.5t-24 -12.5t-30.5 -33.5t-29.5 -61.5q-7 -24 -16 -59.5t-13 -81.5t0.5 -100.5t23.5 -117.5q1 -3 6 -12t12.5 -18.5
t16.5 -17t20 -8.5z" />
    <glyph glyph-name="D" unicode="D" horiz-adv-x="451" 
d="M195 479q3 12 8 23t11 22q11 20 27 31t34 12t36 -7.5t32 -26.5q27 -39 46 -88t27.5 -102.5t7 -108t-15 -104t-39.5 -91.5t-65 -70q-24 -19 -52.5 -20.5t-57.5 33.5q-18 29 -15.5 56t6.5 48q0 2 3 3t5 3q2 -2 3.5 -4t2.5 -5t2.5 -11.5t4 -17.5t6.5 -16t10 -7q9 0 22 18
t26.5 42.5t25 51.5t15.5 46q15 68 15.5 136t-11.5 137q-3 16 -10 30.5t-16 28.5t-21.5 13.5t-20.5 -16.5q-14 -23 -25.5 -57.5t-21 -75t-17 -84t-13.5 -85.5t-10.5 -79.5t-8.5 -64.5t-6 -55t-9 -54q-3 -12 -13 -24.5t-21 -17.5q-19 -7 -37.5 -1t-31.5 23q-16 16 -23 40.5
t-9 47.5q-3 26 0 55q6 102 12 186q3 36 5.5 72t5.5 66t6 52.5t5 31.5q3 16 10 28t15.5 19.5t17.5 10t16 0.5q14 -3 21.5 -14.5t6.5 -40.5q0 -21 -1 -54t-2 -70.5t-2 -74.5t-1.5 -64.5t1 -42t4.5 -6.5q5 12 14 46.5t19 78.5t21 89.5t20 79.5z" />
    <glyph glyph-name="E" unicode="E" horiz-adv-x="330" 
d="M214 335q5 1 10.5 4t10.5 -8q5 -9 -0.5 -14.5t-16 -9t-24.5 -6.5t-26 -7q-11 -3 -21 -4.5t-21 -4.5q-2 -1 -5 -5t-3 -7q2 -32 4 -64.5t3 -64.5q1 -29 -0.5 -58.5t-4.5 -58.5q-2 -21 5 -30.5t28 -7.5q11 1 29 1.5t37.5 1t37.5 1t30 1.5q6 0 13.5 -0.5t9.5 -8.5
q3 -9 -1 -20t-9 -13q-21 -8 -40.5 -10t-42.5 -4q-17 -2 -43.5 -3.5t-52.5 -2.5q-30 -1 -62 -2q-15 3 -27 12q-11 8 -20 21.5t-11 36.5q-1 0 -1 35t0.5 89.5t2 119t4 124t6.5 105.5t10 62q5 20 37 27.5t72.5 8t79.5 -2t58 -1.5q2 0 6 -0.5t7 -2t5.5 -4.5t1.5 -9
q-2 -12 -12.5 -20.5t-18.5 -10.5q-34 -5 -67.5 -5.5t-66.5 -5.5q-11 -2 -14.5 -7t-3 -12t2 -14.5t1.5 -13.5q-1 -23 -0.5 -45t1.5 -45q0 -24 7.5 -34t21 -11.5t32 2t41.5 6.5z" />
    <glyph glyph-name="F" unicode="F" horiz-adv-x="293" 
d="M187 321q4 0 1.5 -0.5t-5.5 0.5q-9 1 -16 0.5t-12.5 -3.5t-7.5 -10t0 -20q1 -5 1.5 -18.5t0.5 -28.5v-28.5v-19.5q-1 -14 -2 -47t-2 -67.5t-1 -62.5t2 -33q6 -17 -4 -31.5t-36 -14.5q-27 0 -46.5 18.5t-31.5 62.5q-8 29 -9.5 62.5t0.5 68t5.5 68t5.5 62.5q0 8 -0.5 13.5
t0.5 14.5q0 4 -5.5 7t-11.5 6.5t-10.5 8t-2.5 12.5t9 9.5t14.5 2t13.5 4t8 14.5q1 10 2 23.5t2 27.5t1.5 27.5t1.5 23.5q2 14 4 28.5t-9 21.5q-8 8 -4.5 21t19.5 17q8 2 17 4t18 2q38 -2 77 -3t78 -4q6 0 14 -1t16.5 -2.5t14.5 -4t8 -7.5q1 -5 0 -14.5t-8.5 -18t-23 -12
t-42.5 3.5q-22 11 -38 16t-26 1q-4 0 -11 -5.5t-7 -22.5q-1 -32 -0.5 -57.5t0.5 -57.5q0 -13 5 -19t19 -5q16 2 31.5 3.5t31.5 -0.5q7 -1 17 -7t9 -13q-2 -7 -9.5 -9.5l-13.5 -4.5q-11 -2 -23 -1.5t-29 -0.5z" />
    <glyph glyph-name="G" unicode="G" horiz-adv-x="346" 
d="M0 223q0 76 20.5 139.5t52.5 109t71 70.5t77 25q20 0 39.5 -3.5t31.5 -18.5q7 -8 10.5 -22.5t3.5 -26.5q0 -21 -9 -39.5t-21 -31t-24 -17t-17 2.5q-5 6 -2.5 10t9.5 9t15.5 13t15.5 22t3 27.5t-13 22.5t-20.5 11.5t-18.5 -4.5q-8 -7 -23 -23t-31 -48t-27.5 -84.5
t-11.5 -131.5q0 -30 1 -59.5t3 -56t4.5 -48t4.5 -36.5q1 -9 5 -20t10.5 -20t15 -13.5t18.5 -1.5q7 2 13.5 9.5t11.5 17.5t9 20.5t6 18.5q6 22 8.5 43.5t3.5 44.5q0 3 0.5 9t-1.5 11.5t-8 8t-18 -2.5q-24 -15 -39 -15t-18 28q-1 11 9.5 18t19.5 9q19 4 38 5t39 -1
q3 0 9.5 -0.5t13.5 -2.5t12.5 -6t6.5 -12q16 -48 11 -93.5t-24.5 -80t-49 -55.5t-63.5 -21q-25 -1 -55 7.5t-50 25.5q-15 14 -29.5 34.5t-25 50.5t-17 72t-6.5 100z" />
    <glyph glyph-name="H" unicode="H" horiz-adv-x="395" 
d="M228 274q-1 16 -7 21.5t-11 6.5q-20 3 -39 1.5t-39 -2.5q-5 -1 -11.5 -5.5t-6.5 -16.5q0 -6 0.5 -23t1.5 -38.5t2.5 -44.5t2.5 -41q1 -11 3.5 -22t2.5 -22q1 -29 2.5 -58.5t-4.5 -57.5q-3 -14 -13 -23.5t-23 -13t-27 -1.5t-25 11q-14 11 -22 43t-11.5 73t-3.5 85.5t1 82
t2.5 62.5t0.5 26t-1 19t1 45.5t3.5 59t8 59t13.5 46.5t20 21q20 2 32 -8.5t14 -28.5q4 -20 4 -41.5t2 -42.5q2 -18 4 -36.5t2 -37.5q0 -17 7 -22t21 -4l44 2t44 3q8 0 12 6.5t4 11.5q0 13 3 38t6.5 50t6.5 44.5t4 22.5q2 17 12.5 27.5t23.5 14t24.5 -1.5t15.5 -19
q1 -2 2.5 -20t3 -45.5t3 -60t2 -62t1 -52.5t0.5 -32q-1 -51 0 -105t-1 -105q-1 -12 -2.5 -24.5t0.5 -23.5q6 -23 -4 -39t-24 -28q-11 -9 -21 -10t-26 0q-12 1 -19 9.5t-11.5 19.5t-6.5 21.5t-3 14.5q-2 11 -3 33.5t-1 51t0.5 59t1 57t1 46t0.5 24.5z" />
    <glyph glyph-name="I" unicode="I" horiz-adv-x="155" 
d="M30 546q3 8 7 12t10.5 5.5t17.5 -3.5t17.5 -20t10.5 -32.5t6 -34.5t3 -25q2 -12 4.5 -36t5.5 -54.5t5.5 -64.5t3.5 -65t1.5 -57t-1.5 -40q-5 -42 -7.5 -82.5t-9.5 -81.5q-2 -11 -10.5 -22.5t-30.5 -11.5t-34.5 24t-22.5 88q-6 73 -6 153.5t3.5 151t10.5 124t16 72.5z" />
    <glyph glyph-name="J" unicode="J" horiz-adv-x="313" 
d="M0 87q0 28 3 44t7 24t8.5 10t6.5 2q4 1 9 -3t6 -8q6 -27 11 -54t10 -55q4 -19 15.5 -27t30.5 -10q20 -2 29 8t14 27q9 31 12 62.5t2.5 63t-3.5 63t-6 63.5q-2 17 -4.5 40.5t-5 47.5t-4.5 47.5t-2 40.5q0 20 -5 31t-14.5 16t-23 6t-31.5 2q-13 2 -25 5t-24 7
q-3 1 -6.5 6.5t7.5 7.5q35 4 68.5 7.5t68.5 5.5q12 1 25.5 -2t24.5 -10.5t19 -19.5t10 -29q8 -75 21.5 -158t22.5 -158q9 -72 -6 -124.5t-42.5 -85t-63.5 -43.5t-70 1q-34 11 -57 36.5t-31 63.5q-2 14 -3.5 26.5t-3.5 22.5z" />
    <glyph glyph-name="K" unicode="K" horiz-adv-x="334" 
d="M0 66q0 20 0.5 57t1.5 82t1.5 94.5t1.5 93.5t1 79.5v53.5q0 14 4.5 27t27.5 15q20 2 37.5 -8.5t22.5 -27.5q20 -54 25 -104.5t7 -112.5q-1 -8 1 -10.5t5 -2.5t6.5 2t4.5 3q12 15 23.5 29.5t21.5 31.5q11 18 22 41.5t20 46.5t16 43t9 31q5 23 14 30t20 7q5 0 8 -5
t4.5 -11.5t2 -13t0.5 -9.5q0 -19 -6 -50t-18.5 -66.5t-33 -72t-50.5 -65.5q-12 -8 -13.5 -15.5t1.5 -14.5q4 -8 12 -15q27 -37 50 -72q20 -30 38.5 -62.5t26.5 -55.5q5 -11 10.5 -26.5t8.5 -30.5t2 -26.5t-9 -14.5q-17 -6 -28.5 -6t-26.5 16q-4 4 -14 18.5t-23 34l-28 42
t-29.5 42.5t-27.5 34t-21 18q-5 2 -5.5 -3.5t-0.5 -8.5q-2 -26 -4.5 -50.5t-4.5 -50.5q-1 -15 0.5 -31t-4.5 -28q-6 -11 -15 -21.5t-31 -10.5q-30 0 -47 34.5t-17 95.5z" />
    <glyph glyph-name="L" unicode="L" horiz-adv-x="141" 
d="M100 309v-125.5t1 -125.5q0 -43 17 -57.5t60 -10.5q11 1 23.5 1t23.5 -2q6 -1 13 -4t7 -12q0 -8 -4.5 -13t-9.5 -7q-23 -5 -47 -7.5t-47 -6.5l-42 -6t-41 -1q-16 0 -25.5 7.5t-14.5 16.5q-6 11 -8 23t-3 24q-2 10 -2.5 21.5t-0.5 19.5v153t2 153q0 45 -0.5 86.5t1.5 86.5
q0 3 0.5 10t3 14.5t6 13.5t9.5 6q20 0 31.5 -11t22.5 -33q3 -7 6.5 -26t6 -42.5t4.5 -49.5t3.5 -47l2.5 -35z" />
    <glyph glyph-name="M" unicode="M" horiz-adv-x="491" 
d="M336 407q-8 -16 -15 -47t-14.5 -65t-14.5 -64t-13 -44q-9 -18 -22 -29t-27.5 -12.5t-28 7.5t-23.5 32q-8 8 -18 36.5t-20 60.5t-18.5 59.5t-13.5 33.5q0 -19 1.5 -49t3 -62.5t3 -63.5t1.5 -53q0 -17 1 -40.5t1.5 -48t1.5 -48t1 -40.5q2 -10 -3 -15q-8 -10 -17 -14.5
t-19 -5.5t-20.5 0.5t-20.5 3.5q-19 6 -26.5 31.5t-9 58t0 63.5t0.5 48q-2 62 -3.5 123t-1.5 123v44.5t2 59.5t6.5 52.5t14.5 24.5q12 1 21 0t14 -8q15 -2 32.5 -30t35 -68.5t34 -87t30 -86t23.5 -66t13 -26.5t9 19t14.5 49.5t18 68.5t20 75.5t21 70t20.5 51.5
q4 14 13.5 22.5t19 13t17 5.5t8.5 1q47 11 44 -41q-1 -18 0 -64.5t2.5 -106.5t2.5 -126.5t1.5 -123.5t-0.5 -97t-4 -49q-5 -16 -15.5 -22t-21.5 -8q-15 -3 -28 -2.5t-24 7.5q-6 3 -9.5 14t-5.5 23q-3 14 -3 31q0 7 1 17q1 8 1.5 18.5t0.5 21.5q0 10 0.5 39t1 66t1.5 78
t1.5 76t0.5 58.5v26.5z" />
    <glyph glyph-name="N" unicode="N" horiz-adv-x="375" 
d="M249 99q0 10 -1 36t-2 63t-1.5 81t1.5 89.5t5.5 89t11.5 79.5q15 29 36 29q5 0 12 2t13 2.5t11.5 -1.5t7.5 -9q3 -8 2.5 -38t-1.5 -68.5t-2 -78.5t0 -67q0 -7 1.5 -26.5t2.5 -42.5t2 -45.5t1 -35.5q-1 -38 2 -81t-2 -81q-4 -27 -21.5 -45t-40.5 -18q-15 0 -30 16.5
t-28.5 42.5t-26 58.5t-22.5 65t-18 62t-12 48.5q-4 18 -9 39.5t-10 40t-9 31.5t-6 13q-4 0 -5 -17t-1 -33q0 -51 3 -100t4 -99q1 -31 -0.5 -61.5t3.5 -61.5q4 -29 -6 -40t-36 -9q-28 1 -44 9.5t-23.5 22t-9.5 31t-1 37.5q1 22 2 61t2 85.5t2 95.5t2 93t2.5 77t2.5 48
q2 21 4 34.5t4.5 22t6.5 13.5t11 10q7 4 20 3t26.5 -7.5t25.5 -19.5t18 -31q7 -22 19 -64t25.5 -91t27 -99.5t24 -89.5t17.5 -60t7 -11z" />
    <glyph glyph-name="O" unicode="O" 
d="M201 567q19 -1 32 -8t21 -16.5t13 -19.5l9 -18q13 -25 23.5 -77t14.5 -118.5t-1 -142.5t-23 -149q-7 -28 -24.5 -47t-40.5 -28.5t-49.5 -9t-51.5 12.5q-31 14 -51.5 35t-33.5 47t-20 55.5t-11 61.5q-2 12 -1 34t1 34q3 78 16.5 134.5t32 96t40.5 64t42.5 38t37 17.5
t24.5 4zM231 485q-7 15 -19 20t-23 -14q-20 -34 -32 -71q-17 -54 -23 -108.5t-2 -111.5q1 -24 2.5 -48t6 -46.5t14.5 -43t29 -38.5q14 -11 23 -10.5t15 5.5q7 6 11 17q19 84 27 166q3 35 4.5 72.5t-1.5 74.5t-10.5 72t-21.5 64z" />
    <glyph glyph-name="P" unicode="P" horiz-adv-x="293" 
d="M92 521q11 27 30.5 37.5t40.5 9.5t39 -10.5t26 -21.5q13 -20 22 -44.5t15 -50t9 -51t3 -47.5q0 -45 -22 -81.5t-53 -57.5q-7 -5 -15.5 -10.5t-19 -8t-23.5 -0.5t-29 13q1 -22 2.5 -48.5t3 -53.5t3 -53t1.5 -48q0 -14 -6 -30t-16 -22q-14 -8 -32.5 -9t-35.5 1q-3 1 -9 5
t-12 12t-10 21t-4 31v528q0 17 5.5 23t18.5 9q18 3 30 -2t19.5 -12.5t12 -16t6.5 -12.5zM142 525q-11 -10 -19 -20.5t-12 -29.5q-2 -9 -3 -40t-0.5 -66.5t3.5 -67t9 -42.5q5 -6 14 -11t17 -4q6 0 13 7t9 14q2 5 6.5 26.5t3.5 51.5q-1 29 -4.5 63.5t-9 63t-12.5 45.5t-15 10z
" />
    <glyph glyph-name="Q" unicode="Q" 
d="M295 -15q4 -5 15.5 -12.5t23.5 -15.5t21.5 -16t9.5 -13q0 -14 -5 -20.5t-11 -9t-12 -2.5h-8q-15 0 -27 5.5t-22 14.5t-18 19.5t-14 19.5q-26 -19 -59 -21.5t-65 12.5q-31 14 -51.5 35t-33.5 47t-20 55.5t-11 61.5q-2 12 -1 34t1 34q3 78 16.5 134.5t32 96t40.5 64
t42.5 38t37 17.5t24.5 4q19 -1 32 -8t21 -16.5t13 -19.5l9 -18q13 -25 23.5 -77t14.5 -118.5t-1 -142.5t-23 -149q-3 -12 -7 -19q6 -6 12 -14zM132 200q1 -24 2.5 -48t6 -46.5t14.5 -43t29 -38.5q4 -2 7 -4l6 -4l-2 4q-5 9 -6 19q-2 8 0.5 17t12.5 17q8 5 17.5 -2t17.5 -16
q6 25 14.5 77t12 114t-2.5 125.5t-30 113.5q-7 15 -19 20t-23 -14q-20 -34 -32 -71q-17 -54 -23 -108.5t-2 -111.5z" />
    <glyph glyph-name="R" unicode="R" horiz-adv-x="293" 
d="M99 294q8 49 15 97.5t17 96.5q4 15 12 30.5t19 26.5q17 15 35.5 18t35.5 -3.5t30.5 -21t19.5 -32.5q6 -19 7.5 -45t-2 -55t-12 -58t-22.5 -54q-11 -21 -30.5 -41t-39.5 -31q11 -15 22.5 -39.5t23 -52.5t22 -58t19.5 -56q7 -16 11 -31t2.5 -26.5t-8 -18.5t-18.5 -7
q-16 0 -30 1t-25 8t-19.5 21.5t-13.5 41.5q-6 42 -13.5 74t-15.5 74q-1 5 -4.5 13t-7.5 7q-3 0 -5.5 -9t-2.5 -15q-1 -40 -2 -84.5t-4 -84.5q-1 -7 -2 -16t-5 -17t-13 -13.5t-25 -5.5q-25 0 -39 10.5t-21 24t-8.5 24.5t-1.5 13q0 62 1 119.5t2 114.5t2 114.5t1 119.5
q0 18 -2.5 40.5t-3.5 40.5q0 4 2.5 10t5.5 7q8 1 16.5 1t13.5 -4q26 -23 37.5 -58.5t13.5 -69.5q2 -35 5 -70.5t5 -70.5zM186 496q1 -5 1 -3t-1.5 6.5t-3.5 9t-4 3.5q-5 -1 -6.5 -6t-2.5 -10q-8 -44 -16.5 -87.5t-15.5 -88.5q-2 -8 -2 -19t10 -15q4 -2 9 0.5t9.5 6.5t8 9
t4.5 9q4 14 9 37t8 49t2.5 52.5t-9.5 46.5z" />
    <glyph glyph-name="S" unicode="S" 
d="M185 93q1 73 -28.5 132t-76.5 112q-13 15 -21.5 33t-19.5 35q-10 25 -8.5 47.5t7.5 36.5q8 18 22 33t31.5 25.5t36 16.5t34.5 6q26 0 39.5 -13.5t19.5 -30.5q7 -19 7 -44q-2 -12 -6 -22q-4 -8 -11.5 -16.5t-20.5 -10.5q-9 -2 -12 2t1 7q8 5 7 21.5t-8 34t-17.5 29
t-21.5 5.5q-16 -9 -26 -25t-13 -34t0.5 -36t14.5 -30q21 -28 44 -55l46 -54q18 -21 33.5 -46.5t27.5 -53t19 -55t7 -52.5t-9.5 -50.5t-26 -47t-39 -36.5t-47.5 -19q-54 -11 -88 1.5t-52 36t-24 50.5t-5 47q0 23 5 43t11.5 36t14 26.5t12.5 14.5q20 17 31 9q6 -4 4.5 -9.5
t-3.5 -9.5q-17 -27 -18 -55t5 -57q2 -11 9.5 -22t17 -19t21 -12t22.5 -2q21 4 36.5 27.5t15.5 49.5z" />
    <glyph glyph-name="T" unicode="T" horiz-adv-x="316" 
d="M64 507h-36q-15 0 -20.5 6.5t-5 14.5t7.5 15t18 8q9 2 34.5 3.5t58.5 3t69.5 3t67.5 2.5t52 1.5t23 0.5q15 0 17.5 -6.5t4.5 -9.5q1 -3 -1.5 -10.5t-5.5 -9.5q-8 -5 -16 -9t-16 -5q-23 -4 -45.5 -6t-45.5 -5q-3 -1 -7 -5.5t-4 -8.5q4 -147 12 -295q2 -46 5 -93.5t5 -93.5
q0 -9 -3 -22t-10.5 -24.5t-19 -20t-28.5 -8.5t-32.5 18.5t-21.5 45.5q-2 19 -2.5 29t-0.5 18v18v29q-1 66 0 132t3 132q1 29 2 56.5t4 55.5q3 21 -3.5 30.5t-28.5 7.5q-7 -1 -14.5 0t-16.5 2z" />
    <glyph glyph-name="U" unicode="U" horiz-adv-x="294" 
d="M1 171q0 63 -1.5 134.5t3.5 134.5q1 15 2.5 37t5 42.5t11 35.5t21.5 17q25 5 41 -7t19 -38q7 -58 13 -116t11 -116q3 -38 2.5 -76.5t1.5 -76.5q1 -13 1.5 -21.5t2 -16t3 -16t3.5 -20.5q1 -12 6.5 -22.5t12 -16t12.5 -4.5t9 13q13 23 18 63t10 84q1 28 2.5 63.5t2.5 72.5
t2.5 73.5t2.5 66.5t1 50.5v27.5q-1 19 9 22.5t14 2.5t7 -15t3 -21q2 -91 1 -176t-1 -176v-34.5t-2.5 -49.5t-8 -55t-16 -51.5t-26 -38t-37.5 -14.5q-40 0 -68 15.5t-46 39t-27.5 52t-14 55t-5.5 47.5t-1 29z" />
    <glyph glyph-name="V" unicode="V" horiz-adv-x="322" 
d="M21 566q15 6 26 0t19 -16.5t13 -22.5t7 -17q12 -29 27.5 -75t31 -96t30.5 -97t25 -76q2 -3 4 -5.5t4 -5.5q2 3 5 5.5t5 5.5q13 20 23.5 56t19 78t15 86t11.5 81t8 61.5t4 28.5q2 5 6.5 8.5t8.5 3.5t9 -4.5t5 -7.5q0 -16 -1 -36.5t-3 -42.5t-4 -42.5t-3 -36.5
q-5 -52 -11 -103.5t-14 -102.5q-8 -56 -14.5 -109t-27.5 -112q-4 -17 -16 -26.5t-26 -11.5t-28.5 2.5t-23.5 16.5q-11 13 -19 28t-12 31l-28 110t-28 111q-4 15 -9 36t-10 40q-6 22 -12 45q-11 36 -20 69q-8 29 -13.5 60t-4.5 54q1 14 7.5 20t13.5 9z" />
    <glyph glyph-name="W" unicode="W" horiz-adv-x="533" 
d="M300 70q-6 -2 -9.5 -11t-6 -21.5t-4 -25t-2.5 -20.5q-5 -27 -21.5 -39t-41.5 -17q-23 -5 -40.5 4t-28.5 28q-10 17 -16.5 36t-11.5 38q-11 38 -23.5 75.5t-21.5 75.5q-5 20 -13.5 53t-18 71.5t-18.5 78.5t-15.5 74t-7.5 57.5t5 29.5q11 9 22.5 11.5t17.5 -1.5
q20 -5 36 -24.5t24 -43.5q4 -12 11 -36t14 -51t14 -52.5t12 -41.5q14 -48 27.5 -95.5t29.5 -101.5q7 -6 12.5 3t10.5 27.5t9.5 43.5t8.5 50.5t8 48t9 37.5q3 8 7.5 17t11 17t14 13t15.5 5q16 -1 25.5 -13t14.5 -23q8 -21 11 -43.5t8 -44.5q5 -20 8 -40t8 -40q0 -3 2 -5.5
t4 -5.5l4 4t3 4q5 12 11 23.5t9 24.5q21 83 43 168.5t43 168.5q1 5 3.5 12.5t11.5 7.5t11 -11t1 -17q-14 -79 -30 -161t-30 -160q-11 -57 -21.5 -112.5t-21.5 -111.5q-2 -11 -11.5 -19t-22 -12t-25.5 -3.5t-23 8.5q-7 5 -14.5 20t-15 30.5t-14 27t-11.5 10.5z" />
    <glyph glyph-name="X" unicode="X" horiz-adv-x="410" 
d="M46 567q29 3 53 -17.5t40 -51.5q21 -40 42 -79.5t42 -78.5q2 -5 6 -9t7 -8q4 4 7.5 8t6.5 9q10 19 22.5 43.5t25.5 49.5t25.5 49.5t22.5 43.5q2 8 6 11q7 14 22 24t24 4q5 -3 6 -8.5t-0.5 -12.5t-4 -14.5t-5.5 -12.5q-11 -24 -25 -52t-29 -57.5t-29.5 -57.5t-24.5 -52
q-6 -13 -7.5 -29.5t3.5 -30.5q7 -20 22.5 -54t31.5 -68q18 -40 40 -83q10 -13 15 -25q5 -11 6.5 -23t-3.5 -20q-8 -19 -30.5 -28.5t-51.5 3.5q-18 8 -37.5 33t-36.5 53.5t-29.5 53t-16.5 31.5q-9 -11 -17.5 -23t-17.5 -23q-23 -32 -47 -64.5t-50 -62.5q-2 -3 -8.5 -4
t-13 -0.5t-11 1.5t-3.5 2q-4 1 -3 4.5t3.5 8t5.5 8.5t5 7q30 51 59 101.5t58 102.5q4 6 4 15.5t-3 17.5q-35 77 -66.5 145t-66.5 146q-17 29 -9.5 50t35.5 24z" />
    <glyph glyph-name="Y" unicode="Y" horiz-adv-x="275" 
d="M166 -67q-31 -2 -40 7.5t-12 40.5q-1 12 -1 39t0.5 57.5t0.5 57.5t-1 39q-2 27 0.5 54t0.5 54q-2 22 -6 43.5t-13 41.5q-8 16 -22.5 43t-29.5 53t-27 45.5t-13 22.5q-5 8 -2 14.5t6 7.5q16 5 31 -0.5t25 -21.5q4 -8 14 -22.5t21 -30.5t21.5 -31t15.5 -22q5 -8 9 -8.5
t11 9.5q9 13 18 31t19 36t20 35t21 29q11 10 24 7.5t21 -7.5q7 -5 10.5 -19t0.5 -23q-8 -19 -18.5 -40l-21 -42t-20.5 -42.5t-16 -40.5q-8 -26 -9 -55.5t1 -57.5q1 -21 3 -57.5t4 -76.5t4.5 -76t5.5 -57q2 -18 -13.5 -26.5t-42.5 -10.5z" />
    <glyph glyph-name="Z" unicode="Z" 
d="M348 567q6 1 12 0q5 -1 10.5 -2.5t10.5 -5.5q14 -11 18.5 -21t-6.5 -27q-13 -17 -26.5 -32.5t-23.5 -34.5q-23 -44 -44 -88.5t-42 -89.5q-10 -21 -22.5 -48t-25.5 -55.5t-25.5 -56t-21.5 -48.5q-5 -11 -7.5 -23t-6.5 -24q-2 -6 16 -5.5t44.5 4.5t55 9.5t46.5 7.5
q8 1 19 -3t14 -12q4 -8 -5.5 -15.5t-17.5 -9.5q-12 -4 -31.5 -12.5t-44 -17t-53 -15t-57.5 -7.5t-57 5.5t-52 24.5q-11 7 -18 23.5t-7 30.5q0 20 14 54.5t35.5 76.5t48 86.5t51.5 85t45.5 72t31.5 47.5q8 13 14 23t16 21q2 2 2.5 6t2.5 7q-3 0 -6 0.5t-6 0.5l-42 -7t-41 -8
q-10 -2 -21.5 -0.5t-22 5.5t-17 10.5t-6.5 14.5t12 13t29 8.5t35.5 5.5t32.5 5q17 3 41.5 7t46.5 7q26 4 52 7z" />
    <glyph glyph-name="A" unicode="A" horiz-adv-x="311" 
d="M165 31q-7 27 -13 50q-5 20 -9.5 37t-5.5 20q-2 5 -8 7t-9 0q-5 -2 -16 -3.5t-22.5 -4t-20.5 -6t-10 -9.5q-2 -6 -5.5 -24.5t-8 -41.5t-9 -45.5t-7.5 -35.5q0 -3 -2 -5q-8 -20 -16 -28.5t-25 -8.5q-8 0 -11.5 5.5t-4.5 13.5t0.5 16.5t2.5 14.5q10 47 24 112.5t29 134.5
t29 134t25 112q3 15 4 26.5t8 34.5q6 23 19.5 28.5t24.5 -0.5q14 -8 21.5 -17.5t17.5 -22.5q15 -20 22.5 -42.5t12 -45.5t7 -46.5t7.5 -46.5q8 -39 15.5 -78t15.5 -77q3 -15 10 -44t14.5 -61t14 -61t8.5 -43q1 -11 -5 -20.5t-16 -16.5t-22.5 -10t-24.5 0q-14 -1 -25 14.5
t-19 34.5q-10 22 -17 49zM100 339q-2 9 -4.5 6.5t-3.5 -7.5q-2 -9 -6.5 -29.5t-9 -43t-9 -43.5t-5.5 -30q-3 -15 7 -17.5t23 1t24.5 10t11.5 8.5q-1 9 -5 31.5t-9 46.5t-9 43.5t-5 23.5z" />
    <glyph glyph-name="four" unicode="4" horiz-adv-x="331" 
d="M83 565q13 1 19 -10t2 -48q-5 -38 -11 -84.5t-16 -95.5q-4 -18 -1 -33t19 -17q30 -2 47 -2t26.5 7t13 23.5t6.5 46.5q5 48 7.5 97.5t4.5 97.5q0 2 3 10t14 8q12 0 26 -9.5t16 -36.5q4 -22 5.5 -53t1.5 -65q0 -91 5.5 -181t3.5 -181q0 -20 0.5 -31t0.5 -22q0 -29 -17 -41
t-41 -12q-12 0 -22.5 7.5t-18 21t-12 31.5t-2.5 40q2 24 3 54t2 57t2 47t3 25q2 8 -6 10t-13 3q-9 0 -23 0.5t-29 1t-29.5 1t-23.5 0.5q-23 1 -34 14t-14 32t1.5 41.5t13.5 43.5q3 7 8 25.5t11 41t12.5 46.5t13 44t12.5 32.5t10 12.5z" />
    <glyph glyph-name="one" unicode="1" horiz-adv-x="267" 
d="M46 454q-2 -5 -11 -12.5t-11 -7.5q-15 1 -17 15.5t3 32.5t13.5 35.5t13.5 25.5q6 10 17 19t22 9q24 1 43 -18.5t23 -44.5q5 -17 11.5 -52.5t11.5 -86t6.5 -113.5t-2.5 -133q0 -16 -1.5 -37t0.5 -40.5t9 -34t23 -17.5q5 -1 14 -7.5t9 -23.5t-17 -23.5t-34 -6.5
q-15 1 -30 1.5t-29 2.5q-21 3 -42 -0.5t-42 1.5q-11 3 -20 8t-9 21q0 8 5.5 13.5t13.5 9.5t17 6t16 2q4 1 8 4.5t4 5.5q0 49 -0.5 107.5t-1 119.5t-1 119.5t-1.5 106.5q0 5 -6 2.5t-8 -9.5z" />
    <glyph glyph-name="two" unicode="2" horiz-adv-x="304" 
d="M159 -67q-9 3 -23 2.5t-29.5 -1t-30 0.5t-24.5 7q-15 9 -28 22t-19.5 32t-3 44.5t21.5 59.5q23 55 48.5 108.5t45.5 109.5q13 35 30.5 72.5t22.5 75.5q1 5 -1.5 16.5t-8.5 21t-17.5 14.5t-28.5 -4q-6 -2 -16 -3.5t-19.5 0t-17 6.5t-9.5 17q2 9 16 15.5t49 15.5
q18 4 36.5 3.5t35.5 -7t31 -21t23 -37.5q9 -26 8.5 -50.5t-5.5 -44.5q-5 -23 -15 -44q-22 -70 -41 -132q-8 -27 -17 -54.5t-17 -52.5t-15.5 -46l-12.5 -35q-7 -18 -9.5 -29t2 -17.5t15.5 -9t31 -2.5q14 0 28 -2t25 -8q13 -6 11.5 -14.5t-16.5 -13.5q-11 -4 -24 -7t-32 -8z
" />
    <glyph glyph-name="three" unicode="3" horiz-adv-x="258" 
d="M153 316q54 -24 78.5 -73.5t24.5 -121.5q0 -36 -8 -69.5t-27.5 -59.5t-51.5 -41.5t-79 -15.5q-31 0 -55 18.5t-30 46.5q-7 27 -4.5 50t19.5 35q9 5 15.5 -2t4.5 -13q-1 -3 -3.5 -15.5t0 -26.5t13 -26t36.5 -14q28 -1 43 21t21 49q7 31 7 71q-1 32 -6 59q-5 23 -15.5 45.5
t-30.5 31.5q-10 4 -19 3.5t-17 -2.5t-14.5 -3t-10.5 2t-6.5 10.5t-1 16.5t8.5 17.5t22 14.5q30 10 47.5 29.5t23.5 45t1 54.5t-20 58q-9 17 -18 20.5t-17 3.5t-25.5 -20t-25.5 -49q-1 -3 -4.5 -8.5t-11.5 -3.5t-11.5 8.5t1.5 26.5q20 47 46 64.5t65 16.5q11 0 29 -5.5
t26 -13.5q31 -34 38 -68.5t3 -63.5q-4 -33 -21 -65q-6 -9 -12 -16q-5 -7 -12.5 -13t-15.5 -9z" />
    <glyph glyph-name="five" unicode="5" horiz-adv-x="361" 
d="M81 349l27 27q27 26 58.5 39t68.5 3q18 -5 31 -14.5t22 -23t14.5 -29t8.5 -31.5q7 -37 9.5 -78t-0.5 -82.5t-13 -82t-27 -75.5q-17 -34 -41.5 -49.5t-59.5 -17.5q-27 -2 -53.5 2.5t-49.5 15t-40.5 27t-25.5 38.5q-17 43 -7.5 75.5t32.5 49.5q6 5 11 3.5t8 -6.5t4.5 -11
t1.5 -9q0 -8 1.5 -24.5t8.5 -33.5t21 -30t40 -13q17 0 27 13t16 26q22 40 32.5 84t14.5 83t3 69t-2 44q-2 11 -11 24.5t-17 14.5q-10 2 -21.5 -8t-21.5 -18q-7 -6 -17.5 -16t-21.5 -20.5t-20.5 -19t-15.5 -11.5t-17 -1t-22.5 10.5t-19 22.5t-5.5 35q2 37 -1.5 83t-5.5 83
q0 13 4 22.5t10.5 15.5t14 9t14.5 3q48 1 105 1t105 -1q15 1 21.5 -1.5t7.5 -8.5t-1 -15t-2 -19q-5 -26 -23 -32t-38 -4q-34 3 -61.5 7t-61.5 6q-6 0 -17 -5.5t-12 -16.5q0 -6 1.5 -19.5t3 -31.5t3 -38.5t2.5 -39.5z" />
    <glyph glyph-name="six" unicode="6" horiz-adv-x="344" 
d="M151 -70q-36 0 -62.5 12.5t-44.5 34t-28.5 50t-13.5 60.5q-3 41 -1 76.5t9 68.5t19 65.5t28 67.5q11 25 27 51.5t32.5 50.5t31.5 43.5t23 31.5q10 16 32.5 23.5t44 7t34.5 -8t6 -20.5q-7 -14 -22.5 -35.5t-35 -49t-40.5 -61.5t-38 -71q-11 -17 -11 -22.5t4.5 -5.5t11 2
t8.5 2q22 3 43.5 -6.5t39 -27.5t29.5 -42.5t16 -50.5q6 -39 5 -80t-19 -80q-17 -37 -52 -61.5t-76 -24.5zM153 259q-4 0 -10 -2.5t-12.5 -15.5t-14.5 -40t-16 -76q-2 -9 -1.5 -27.5t5 -39t14.5 -39.5t27 -29q23 -13 35.5 -1.5t13.5 38.5q0 7 1 27t0.5 46t-2 54t-6 51.5
t-13 38.5t-21.5 15z" />
    <glyph glyph-name="eight" unicode="8" horiz-adv-x="311" 
d="M260 36q-11 -41 -31.5 -67t-58.5 -34q-38 -7 -74 10.5t-57 49.5q-25 31 -33 64t-5 67t13.5 67.5t22.5 65.5q14 35 31.5 65t32.5 65q2 6 2.5 14t-1.5 16q-9 35 0 65t31 57q13 16 29.5 22t36.5 -3q20 -8 31 -24.5t6 -38.5q-6 -26 -17 -49.5t-19 -47.5q-2 -6 -2 -14.5
t3 -12.5q39 -59 55.5 -111.5t19 -95.5t-4 -76t-11.5 -54zM158 322q-3 2 -10 -12t-15 -38t-16 -55t-13.5 -63.5t-7 -63t4.5 -52.5q6 -23 20 -38.5t37 -17.5q22 -2 33.5 12.5t18.5 33.5q15 40 17.5 77.5t-5 73.5t-24.5 71.5t-40 71.5zM130 469q-4 -6 -0.5 -10t11.5 4
q4 4 9 12.5t9.5 17.5t8 16.5t4.5 10.5q2 7 2 8.5t-4 4.5q-5 1 -11.5 -6.5t-12.5 -18t-10.5 -21.5t-5.5 -18z" />
    <glyph glyph-name="seven" unicode="7" horiz-adv-x="304" 
d="M149 522q-23 -1 -43 -7t-37.5 -12t-30.5 -8.5t-22 5.5q-4 3 -7.5 10t-6 15.5t-2.5 16.5t2 13q2 4 9 6.5t16 3.5t19 1.5t17 0.5q31 3 62 3.5t63 0.5q15 0 29.5 -0.5t28.5 -4.5q40 -8 31 -49q-12 -48 -23 -95t-25 -94q-7 -23 1 -28t26 -4q5 0 13 -1.5t10 -6.5
q2 -4 -4.5 -7.5t-9.5 -3.5q-24 1 -36.5 -7.5t-18.5 -21.5t-7.5 -29t-3.5 -30q-8 -57 -11 -113.5t-8 -113.5q0 -4 -1 -9t-4 -7q-7 -9 -22 -13t-31.5 -0.5t-31 15.5t-19.5 36q-15 50 -8 93.5t22 92.5q7 22 12.5 43.5t13.5 42.5q4 12 1 18.5t-18 4.5h-10t-16.5 1.5t-14.5 5
t-4 9.5q2 12 7.5 11t8.5 -3q35 -8 54.5 10t26.5 45q8 32 18 64t18 64q6 25 0.5 29.5t-33.5 6.5z" />
    <glyph glyph-name="nine" unicode="9" horiz-adv-x="337" 
d="M148 568q36 0 62.5 -12.5t44.5 -34t28.5 -50t13.5 -60.5q3 -41 -1.5 -76.5t-14 -68.5t-24 -65.5t-30.5 -67.5q-11 -26 -25 -52t-27.5 -50t-26 -43.5t-21.5 -31.5q-10 -16 -32.5 -23.5t-43.5 -7t-34.5 8t-6.5 20.5t23 35t35.5 49.5t40.5 61t38 71.5q10 16 10 22t-4.5 6
t-10.5 -2t-8 -2q-23 -3 -44.5 6.5t-39 27.5t-29.5 42.5t-16 50.5q-5 39 -4.5 80t18.5 80q17 37 52.5 61.5t76.5 24.5zM146 239q4 0 9.5 2.5t12.5 15.5t14.5 40t15.5 76q2 9 2 28t-4.5 39.5t-14.5 39t-27 28.5q-23 13 -35.5 1.5t-14.5 -38.5q0 -7 -1 -27t-0.5 -46t2 -54
t6.5 -51.5t13 -38.5t22 -15z" />
    <glyph glyph-name="zero" unicode="0" horiz-adv-x="328" 
d="M300 241q0 -34 -4.5 -70t-11 -69t-15 -61.5t-16.5 -46.5t-22 -32t-31.5 -21.5t-37 -7.5t-39.5 8q-24 10 -44 29t-34.5 42.5t-24 49.5t-12.5 50q-13 89 -5.5 166.5t39.5 163.5q8 25 21.5 48.5t30.5 43.5q11 14 29 25.5t34 10.5q33 0 52.5 -11t30 -26.5t15.5 -32t10 -26.5
q11 -21 23 -82t12 -151zM234 453q-4 14 -17.5 28.5t-27.5 14.5q-7 0 -18 -10.5t-23 -34t-22.5 -61t-17.5 -91.5q-2 -15 -3 -42.5t0.5 -62.5t7 -74.5t15.5 -77.5q2 -8 6.5 -18t10.5 -18.5t13.5 -14t16.5 -5.5t16.5 5.5t13.5 13.5t10 17t7 17q8 21 13.5 55.5t8.5 75.5t4 85
t-0.5 83t-4.5 69.5t-9 45.5z" />
    <glyph glyph-name="ampersand" unicode="&#x26;" horiz-adv-x="513" 
d="M319 -55q-15 9 -29.5 11t-28 0t-25.5 -7l-24 -10q-32 -14 -66 -23.5t-72 1.5q-29 9 -51.5 38t-22.5 74q0 46 17.5 98t47.5 96q26 38 50 75.5t49 75.5q4 5 4.5 12t2.5 13q13 35 24.5 70.5t28.5 68.5q12 23 35.5 29.5t48.5 -3.5q25 -11 32 -32t0 -44t-18.5 -44t-25.5 -41
q-14 -21 -32.5 -39.5t-31.5 -40.5q-7 -11 -5.5 -28t5.5 -31q10 -42 21.5 -82t23.5 -81q5 -14 12 -13.5t11 14.5q9 26 19 51.5t19 51.5q1 4 4.5 8.5t13.5 4.5q5 0 8 -4t5 -9.5t2 -10.5t-1 -8q-8 -23 -22 -45.5t-23 -45.5q-5 -14 -8.5 -30t1.5 -27t11.5 -21t15.5 -17.5t21 -11
t28 -0.5q3 1 7.5 0t6.5 -3t-1.5 -7t-6.5 -7l-22 -10l-22 -10q0 -1 -4 -3t-9.5 -3.5t-11.5 -2t-12 2.5zM171 218q-11 -31 -26.5 -65t-21.5 -70q-3 -21 6 -46.5t24 -42.5q7 -8 17 -10.5t20.5 0t21.5 8t20 13.5q14 11 15.5 21.5t-5.5 26.5q-20 41 -36.5 82t-34.5 83zM240 462
q6 11 12.5 20t11.5 21q4 10 -2 8q-3 -1 -7 -3q-4 -5 -7.5 -12t-5.5 -14.5t-3 -13t1 -6.5z" />
    <glyph glyph-name="at" unicode="@" horiz-adv-x="719" 
d="M675 324q0 -52 -18.5 -104t-49.5 -94.5t-71.5 -70t-83.5 -30.5q0 1 0.5 1t0.5 1q-1 0 -13.5 1.5t-27.5 11t-28.5 31t-14.5 60.5q-1 7 -0.5 18t1 23t1 23.5t0.5 18.5q-7 -20 -14.5 -38.5t-15.5 -37.5q-3 -7 -6.5 -14.5t-8.5 -13.5q-3 -4 -9 -7t-11 -3q-24 -3 -44.5 3
t-35.5 19.5t-23.5 34t-6.5 45.5q5 54 20.5 105.5t49.5 96.5q14 16 29.5 29.5t34.5 19.5q13 5 27.5 4t28.5 -10l13 -11q25 15 44.5 7t24.5 -37q2 -14 1.5 -27t-0.5 -26q-2 -36 -3.5 -72t-3.5 -71q0 -8 -1 -22t-2 -30t-2 -31t-2 -25q1 -16 7 -23.5t15 -9.5q14 -2 23 8t12 18
q15 35 30.5 70t22.5 71q6 33 10.5 66t3.5 66t-8 65t-25 62q-9 21 -31.5 48t-53.5 46.5t-68.5 25.5t-77.5 -16q-23 -12 -56 -45.5t-63.5 -84t-52 -116.5t-21.5 -144q0 -77 20.5 -131.5t52 -90t69 -54t72 -24.5t61.5 -1.5t37 15.5q8 9 12.5 20.5t12.5 21.5q5 6 10 14t19 5
q7 -2 8.5 -5.5t1 -8t-2.5 -9t-3 -8.5q-3 -30 -21 -52.5t-45.5 -37.5t-61.5 -21.5t-68 -3.5q-52 5 -102 29q-43 20 -89.5 63t-80.5 120q-28 86 -23.5 171t36.5 169q41 105 115.5 173t186.5 91q29 6 65 0.5t73.5 -22.5t73 -45t63 -66.5t44.5 -88t17 -108.5zM379 391q3 13 1 20
t-10 12q-11 5 -16 -0.5t-9 -10.5q-14 -18 -25.5 -36t-16.5 -41l-11 -59q-2 -8 -2.5 -16.5t-0.5 -16.5v-60q0 -6 0.5 -15t2 -17.5t3 -14t3.5 -5.5q4 0 8.5 8.5t6.5 15.5l18 74z" />
    <glyph glyph-name="slash" unicode="/" horiz-adv-x="275" 
d="M44 -40q-5 -6 -10.5 -7t-10 0.5t-7.5 4t-3 4.5q-14 15 -13.5 41.5t6.5 54t14.5 51t10.5 31.5q0 1 8 21t20 50.5t27 68t29.5 73.5t26.5 67.5t19 49.5q6 16 14 32t17.5 27.5t19 18t18.5 4.5q5 -3 10.5 -10t5.5 -12q6 -14 -0.5 -56t-22 -99t-38 -122t-47 -124t-49 -104.5
t-45.5 -64.5z" />
    <glyph glyph-name="a" unicode="a" horiz-adv-x="337" 
d="M392 313q5 -13 3 -24.5t-7 -22.5q-4 -9 -9.5 -31t-12.5 -50.5t-15 -61t-17 -61t-18 -50.5t-17 -30q-19 -18 -47 -21h6h-8q-6 0 -12 0.5t-11 2.5q-12 2 -21.5 12.5t-16 25t-10.5 30t-5 27.5q-1 7 -0.5 18t1 23t1 23.5t0.5 18.5q-7 -20 -14.5 -38.5t-15.5 -37.5
q-3 -7 -6.5 -14.5t-8.5 -13.5q-3 -4 -9 -7t-11 -3q-24 -3 -44.5 3t-35.5 19.5t-23.5 34t-6.5 45.5q5 54 20.5 105.5t49.5 96.5q14 16 29.5 29.5t34.5 19.5q13 5 27.5 4t28.5 -10l13 -11q25 15 44.5 7t24.5 -37q2 -14 1.5 -27t-0.5 -26q-2 -36 -3.5 -72t-3.5 -71q0 -8 -1 -22
t-2 -30t-2 -31t-2 -25q1 -25 11.5 -32.5t18.5 0.5q4 4 11 22t15.5 44.5t17.5 57.5t17 61.5t14.5 56t9.5 40.5q2 9 5 17.5t5 16.5q2 0 3.5 -0.5t3.5 -0.5zM184 319q3 13 1 20t-10 12q-11 5 -16 -0.5t-9 -10.5q-14 -18 -25.5 -36t-16.5 -41l-11 -59q-2 -8 -2.5 -16.5
t-0.5 -16.5v-60q0 -6 0.5 -15t2 -17.5t3 -14t3.5 -5.5q4 0 8.5 8.5t6.5 15.5l18 74z" />
    <glyph glyph-name="b" unicode="b" horiz-adv-x="315" 
d="M99 234q8 27 16 54.5t20 53.5q7 16 18 30.5t24 27.5q8 8 19.5 11t23.5 1.5t22 -8t15 -16.5q8 -15 14 -31t11 -32q1 -3 2 -9t2.5 -11.5t3.5 -8.5t6 -1l18 9t29 14t27 11t14 -1q1 -5 -8 -13t-21 -16q-14 -9 -32 -18q-8 -4 -14 -11q-5 -6 -10 -15t-6 -23q-1 -38 -4 -66
t-8 -66q-4 -32 -26 -52.5t-51 -18.5q-17 2 -32.5 7t-20.5 12q-6 7 -12.5 19.5t-5.5 27.5q2 35 16 63.5t31 52.5q14 20 21.5 31t5.5 34l-2 88q-1 3 -2 5q-3 5 -6 -3q-4 -8 -9 -16.5t-7 -17.5q-11 -35 -22 -71t-19 -72q-8 -39 -17 -78t-6 -81q2 -25 -23 -29q-35 -5 -57 15.5
t-30 62.5q-8 68 -4 136.5t15 131.5t27 119.5t33.5 101.5t33.5 77t27 47q3 7 9.5 10.5t13 3.5t12.5 -3t9 -10q2 -6 -2.5 -18t-12.5 -29q-5 -9 -11.5 -29t-13 -42.5t-11.5 -43.5t-6 -31q-3 -25 -6.5 -49.5t-5.5 -48.5q-4 -35 -7 -69l-6 -68l-4 -32q1 0 2 1zM208 195
q0 9 -1.5 5t-2.5 -4q-4 -11 -6.5 -24.5t-2.5 -26.5t2 -24t7 -16q1 11 1.5 25t1 27t1 23t0.5 15z" />
    <glyph glyph-name="c" unicode="c" horiz-adv-x="205" 
d="M164 336q2 5 6.5 12.5t7 16.5t1.5 18t-10 18q-14 14 -24 -5q-14 -26 -24 -52t-13 -55q-2 -20 -5 -51t-4.5 -65.5t0 -68.5t9.5 -59q12 -23 30 -8q6 6 18 22.5t24 36t22.5 38t14.5 28.5q11 27 22 54.5t22 55.5l4 5q3 0 5 -2l-8 -24t-14.5 -42.5t-19 -52t-21.5 -53
t-21.5 -45.5t-19.5 -29q-11 -17 -36 -24.5t-52 1.5t-49.5 38.5t-29.5 87.5q-4 62 10 119t42 111q8 17 22 33.5t31 25.5q14 8 33 8.5t36 -2.5q9 -1 14.5 -8.5t7.5 -18t0.5 -23t-6.5 -23.5q-4 -9 -9.5 -14.5t-15.5 -3.5z" />
    <glyph glyph-name="g" unicode="g" horiz-adv-x="367" 
d="M208 249q-2 -5 -4 -9.5t-3 -9.5q-6 -20 -18 -51.5t-24.5 -63.5t-23.5 -58t-15 -34q-6 -13 -17.5 -17.5t-25.5 -3.5q-14 0 -26.5 1.5t-24 8t-21 19.5t-15.5 37q-9 60 -1 111t22 88.5t28.5 60.5t18.5 28q25 40 50 54.5t46.5 12.5t38 -15t24.5 -26q2 -2 5.5 -2t5.5 1
q25 7 42.5 -4.5t21.5 -36.5q3 -18 4.5 -51t2.5 -66t1.5 -58t0.5 -27q16 17 40 43.5t46.5 51t39 43t18.5 20.5q4 5 8 -5t-9 -27q-4 -4 -16 -17.5t-29 -33.5t-36 -43t-35.5 -47t-28 -45.5t-13.5 -37.5q-2 -9 -2 -20.5v-23t0.5 -20t0.5 -11.5q-1 -24 0 -47.5t-1 -47.5
q-2 -51 -4.5 -102.5t-15.5 -102.5q-7 -30 -24 -50t-43 -36q-19 -11 -37.5 -13t-39.5 2q-48 19 -65.5 63t-10.5 100.5t34 118.5t69 116q8 8 13 19.5t8 22.5q4 12 5 26q2 19 5 39q2 17 5 39t7 43q2 10 6.5 30t8.5 37.5t5.5 27t-2.5 -0.5zM103 71l9 15l79 243q6 9 0 15
q-4 13 -10 17q-2 2 -7 -2t-8 -8q-9 -9 -18 -35t-17.5 -55t-14.5 -55t-7 -35q-1 -2 -3.5 -13.5t-4.5 -27t-2 -31.5t4 -28zM162 -88q-4 -4 -4 -5q-4 -8 -11.5 -29.5t-15.5 -50.5t-14.5 -60t-8.5 -57t2.5 -43t18.5 -17q7 0 12.5 14t9 36t5.5 49.5t3.5 54t2 49t1.5 35.5z" />
    <glyph glyph-name="e" unicode="e" horiz-adv-x="227" 
d="M282 249q-8 -22 -18.5 -49t-21.5 -53q-14 -32 -31.5 -62t-43.5 -55q-22 -22 -55 -21.5t-56 21.5q-35 33 -45 73.5t-6 86.5q5 55 22.5 96.5t51.5 83.5q16 18 33 23.5t31.5 4t25.5 -8t16 -12.5t9.5 -14.5t6.5 -16.5q3 -23 0.5 -45t-17.5 -45q-3 -4 -9.5 -10.5t-15.5 -12
t-19.5 -9t-20.5 -1.5q-14 0 -18.5 -11.5t-8.5 -22.5q-5 -17 -6 -44t8 -56q4 -11 10.5 -21.5t14.5 -21.5t18 -11t21 11q24 23 41 50q24 39 42.5 80t28.5 86q2 9 3 10.5t4 13.5q8 22 12 12t-7 -49zM182 367q-11 4 -19 -6t-12 -16q-13 -22 -24 -44t-22 -45q-4 -8 0 -11.5
t11 -1.5q2 0 8 2t14.5 8t17.5 16.5t17 27.5q11 31 12.5 48t-3.5 22z" />
    <glyph glyph-name="f" unicode="f" horiz-adv-x="211" 
d="M267 195q3 -14 -7 -39.5t-39 -49.5q-20 -17 -43 -30t-45 -26q9 -42 19 -84t5 -88l-11 -143q-5 -38 -40 -42q-46 -8 -69.5 12t-31.5 67q-11 60 -9 119.5t7 120.5q1 8 1.5 14.5t1.5 14.5l3 24q1 12 2.5 26t3 27t2.5 23t1 14q5 33 10.5 66t13.5 65q18 78 54 147q22 43 42 64
t36 28t27 4t16 -7q7 -9 7 -27.5t-3.5 -40.5t-9 -43.5t-8.5 -37.5q-13 -54 -35 -102.5t-53 -93.5q-2 -4 -3.5 -7.5t-2.5 -7.5l-4 -30l-4 -30q-3 -16 2.5 -21t13.5 -4.5t16 4.5t11 5q31 17 63 44.5t48 61.5q2 6 5 9q5 5 7 -6zM119 249q10 10 21 30t20.5 45.5t17 53t12 51.5
t5 42.5t-4.5 25.5q-5 -2 -11 -9q-5 -7 -12 -20t-15 -38q-7 -25 -10.5 -49.5t-8.5 -50.5zM96 -233q12 15 17.5 50t5.5 73.5t-5.5 73.5t-17.5 50v-247z" />
  </font>
</defs>
</svg>
